<?xml version="1.0" standalone="no"?>
<!DOCTYPE svg PUBLIC "-//W3C//DTD SVG 1.1//EN" "http://www.w3.org/Graphics/SVG/1.1/DTD/svg11.dtd" >
<svg xmlns="http://www.w3.org/2000/svg">
<metadata>
<json>
<![CDATA[
{
	"fontFamily": "microsite",
	"majorVersion": 1,
	"minorVersion": 0,
	"version": "Version 1.0",
	"fontId": "microsite",
	"psName": "microsite",
	"subFamily": "Regular",
	"fullName": "microsite",
	"description": "Font generated by FontIcon."
}
]]>
</json>
</metadata>
<defs>
<font id="microsite" horiz-adv-x="1024">
<font-face units-per-em="1024" ascent="960" descent="-64" />
<missing-glyph horiz-adv-x="1024" />
<glyph unicode="&#x20;" horiz-adv-x="512" d="" />
<glyph unicode="&#xe900;" glyph-name="Klaim-Sidebar" data-tags="Klaim-Sidebar" d="M870.827 539.281c17.536-1.13 34.065-8.597 46.502-21.004 12.442-12.412 19.951-28.919 21.124-46.451 0.171-2.517 0.171-5.205 0.171-7.68v-160.256c0-2.475 0-5.163-0.171-7.68-1.178-17.54-8.687-34.052-21.137-46.464s-28.988-19.874-46.532-20.992c-2.347-0.171-4.864-0.171-7.467-0.171h-103.808c-85.035 0-157.824 67.456-157.824 155.435s72.789 155.434 157.781 155.434h103.893c2.492 0.035 4.979-0.008 7.467-0.128zM750.379 342.545c21.888 0 39.68 18.517 39.68 41.429s-17.792 41.429-39.68 41.429c-21.888 0-39.637-18.517-39.637-41.429s17.707-41.429 39.637-41.429zM863.317 166.417c1.429 0.051 2.85-0.239 4.147-0.836 1.301-0.602 2.441-1.498 3.328-2.62 0.887-1.118 1.502-2.432 1.788-3.836 0.29-1.399 0.243-2.85-0.132-4.228-8.277-29.525-21.376-54.699-42.411-75.861-30.763-31.019-69.803-44.8-118.016-51.328-46.848-6.357-106.667-6.357-182.272-6.357h-86.912c-75.563 0-135.424 0-182.272 6.357-48.213 6.528-87.253 20.309-118.016 51.328-30.763 30.933-44.416 70.315-50.901 118.869-6.315 47.275-6.315 107.605-6.315 183.765v4.693c0 76.16 0 136.533 6.315 183.722 6.485 48.597 20.139 87.851 50.859 118.955 30.763 30.976 69.803 44.8 118.016 51.285 46.891 6.357 106.752 6.357 182.315 6.357h86.912c75.563 0 135.424 0 182.272-6.357 48.213-6.528 87.253-20.309 118.016-51.285 21.035-21.205 34.133-46.379 42.411-75.947 0.367-1.378 0.405-2.822 0.115-4.217s-0.905-2.703-1.792-3.819c-0.887-1.116-2.022-2.008-3.319-2.606-1.293-0.597-2.709-0.884-4.134-0.835h-103.808c-116.651 0-219.435-92.885-219.435-217.6s102.827-217.6 219.477-217.6h103.765zM239.531 580.881c-4.062-0.017-8.081-0.834-11.828-2.404s-7.147-3.863-10.008-6.747c-2.86-2.884-5.125-6.304-6.664-10.063s-2.322-7.785-2.306-11.847c0-17.194 13.781-31.104 30.805-31.104h164.523c17.067 0 30.848 13.909 30.848 31.104 0.021 8.208-3.213 16.089-8.997 21.913s-13.643 9.114-21.851 9.148h-164.523zM331.819 788.326l83.541 61.568c21.798 16.116 48.196 24.815 75.307 24.815s53.508-8.698 75.307-24.815l84.011-61.909c-35.157 1.365-74.411 1.365-117.376 1.365h-92.587c-39.339 0-75.477 0-108.203-1.024z" />
<glyph unicode="&#xe901;" glyph-name="Open-Folder" data-tags="Open-Folder" horiz-adv-x="1075" d="M1054.228 564.496c-5.524 9.976-13.624 18.288-23.46 24.067-9.83 5.778-21.033 8.813-32.435 8.787h-606.464c-20.447-0.004-40.34-6.64-56.696-18.91s-28.291-29.514-34.014-49.144l-120.042-411.521c-6.319-21.663-19.492-40.689-37.544-54.231-18.052-13.537-40.008-20.859-62.573-20.859h762.622c22.569 0 44.529 7.316 62.587 20.859 18.053 13.537 31.232 32.568 37.555 54.231l115.241 395.095c2.678 8.489 3.635 17.428 2.816 26.292-0.814 8.864-3.41 17.477-7.593 25.334zM140.16 129.725l120.106 411.518c8.368 28.449 25.702 53.434 49.42 71.233s52.553 27.459 82.207 27.541h542.506v21.333c0 22.632-8.991 44.337-24.996 60.34-16 16.003-37.704 24.994-60.339 24.994h-325.202c-6.359-0.002-12.639 1.415-18.381 4.146s-10.803 6.708-14.815 11.641l-41.941 51.563c-9.989 12.282-22.59 22.184-36.886 28.985s-29.928 10.331-45.759 10.332h-242.346c-22.632 0-44.337-8.99-60.34-24.993s-24.994-37.708-24.994-60.34v-640.002c0-11.315 4.495-22.17 12.497-30.167 8.002-8.003 18.854-12.498 30.17-12.498 13.318 0.036 26.267 4.378 36.916 12.375 10.65 7.992 18.429 19.22 22.178 32z" />
<glyph unicode="&#xe90b;" glyph-name="history" data-tags="history" d="M148.568 811.953c199.283 199.020 523.28 196.92 723.771-3.624 200.596-200.596 202.696-524.751 3.361-724.034-199.283-199.283-523.438-197.235-724.034 3.361-56.424 56.188-99.056 124.695-124.549 200.133-25.493 75.444-33.153 155.767-22.379 234.665 1.413 10.355 6.883 19.724 15.204 26.046s18.814 9.081 29.169 7.667c10.355-1.413 19.724-6.883 26.047-15.204s9.080-18.813 7.667-29.169c-9.145-66.862-2.661-134.939 18.941-198.872 21.604-63.938 57.737-121.991 105.564-169.603 170.401-170.349 444.67-171.347 612.708-3.361 167.986 168.038 166.988 442.307-3.361 612.708-170.297 170.243-444.408 171.346-612.446 3.571l39.279-0.158c5.172-0.025 10.289-1.067 15.058-3.069s9.097-4.923 12.737-8.597c3.64-3.674 6.521-8.029 8.478-12.816s2.952-9.914 2.927-15.086c-0.025-5.172-1.067-10.289-3.069-15.058s-4.922-9.097-8.597-12.737c-3.674-3.64-8.030-6.521-12.817-8.478s-9.914-2.952-15.086-2.927l-133.695 0.63c-10.381 0.055-20.321 4.207-27.658 11.554s-11.475 17.292-11.517 27.673l-0.683 133.591c-0.028 5.172 0.964 10.298 2.918 15.088s4.832 9.145 8.47 12.822c3.638 3.677 7.964 6.601 12.732 8.606s9.883 3.050 15.055 3.078c5.172 0.028 10.299-0.964 15.088-2.918s9.147-4.832 12.823-8.47c3.677-3.638 6.601-7.964 8.605-12.731s3.051-9.884 3.078-15.056l0.21-39.226zM511.951 697.477c10.444 0 20.463-4.15 27.851-11.535 7.383-7.386 11.532-17.404 11.532-27.849v-193.769l119.779-119.726c3.765-3.634 6.769-7.976 8.833-12.781 2.069-4.805 3.156-9.972 3.203-15.202 0.047-5.225-0.946-10.413-2.925-15.255-1.974-4.842-4.899-9.242-8.596-12.939-3.696-3.703-8.092-6.627-12.928-8.607-4.842-1.985-10.024-2.983-15.255-2.94s-10.398 1.129-15.208 3.188c-4.805 2.064-9.153 5.062-12.786 8.822l-142.831 142.832v226.325c0 10.445 4.15 20.463 11.535 27.849s17.404 11.535 27.848 11.535z" />
<glyph unicode="&#xe90c;" glyph-name="edit-square" data-tags="edit-square" horiz-adv-x="975" d="M692.108 935.744h-408.73c-177.539 0-283.38-105.84-283.38-283.38v-408.242c0-178.027 105.84-283.867 283.38-283.867h408.242c177.539 0 283.38 105.84 283.38 283.38v408.73c0.488 177.539-105.353 283.38-282.892 283.38zM436.531 179.253c-14.145-14.145-40.971-27.801-60.481-30.728l-119.985-17.071c-4.39-0.488-8.779-0.975-13.169-0.975-19.997 0-38.532 6.829-51.701 19.997-16.095 16.095-22.924 39.507-19.022 65.358l17.071 119.985c2.927 19.997 16.095 46.336 30.728 60.481l217.534 217.534c3.902-10.243 7.804-20.485 13.169-32.191 4.877-10.243 10.243-20.973 16.095-30.728 4.877-8.292 10.243-16.095 14.633-21.949 5.365-8.292 11.706-16.095 15.608-20.485 2.439-3.414 4.39-5.853 5.365-6.829 12.193-14.633 26.338-28.289 38.532-38.532 3.414-3.414 5.365-5.365 6.341-5.853 7.316-5.853 14.633-11.706 20.973-16.095 7.804-5.853 15.608-11.218 23.899-15.608 9.755-5.853 20.485-11.218 31.216-16.583 11.218-4.877 21.461-9.267 31.703-12.681l-218.509-217.046zM749.662 492.384l-44.873-45.361c-2.927-2.927-6.829-4.39-10.731-4.39-1.463 0-3.414 0-4.39 0.488-99.012 28.289-178.027 107.304-206.316 206.316-1.463 5.365 0 11.218 3.902 14.633l45.361 45.361c74.137 74.137 144.86 72.674 217.534 0 37.069-37.069 55.115-72.674 55.115-109.742-0.488-35.118-18.535-70.235-55.603-107.304z" />
<glyph unicode="&#xe90d;" glyph-name="wallet-money" data-tags="wallet" d="M971.442 239.066c-12.289-136.73-111.123-226.346-254.512-226.346h-460.883c-141.341 0-256.047 114.711-256.047 256.047v358.466c0 139.291 83.982 236.59 214.567 252.974 13.316 2.049 27.14 3.073 41.478 3.073h460.883c13.316 0 26.117-0.512 38.405-2.56 122.391-14.339 205.352-99.858 216.103-223.785 1.536-14.85-10.755-27.14-25.605-27.14h-79.374c-49.162 0-94.739-18.947-127.512-52.746-38.918-37.894-58.378-91.151-53.77-144.413 8.194-93.201 90.13-166.43 187.428-166.43h73.23c14.85 0 27.14-12.289 25.605-27.14zM1024 500.739v-105.491c0-28.166-22.533-51.21-51.21-52.233h-100.372c-55.306 0-106.005 40.454-110.613 95.762-3.073 32.261 9.218 62.475 30.726 83.474 18.947 19.461 45.065 30.726 73.74 30.726h106.517c28.678-1.023 51.21-24.067 51.21-52.233z" />
<glyph unicode="&#xe90e;" glyph-name="locked" data-tags="locked" d="M204.8 550.4v102.4c0 169.662 137.538 307.2 307.2 307.2s307.2-137.538 307.2-307.2v0-102.4h51.2c56.554 0 102.4-45.846 102.4-102.4v0-409.6c0-56.554-45.846-102.4-102.4-102.4v0h-716.8c-56.554 0-102.4 45.846-102.4 102.4v0 409.6c0 56.32 46.080 102.4 102.4 102.4h51.2zM460.8 205.824v-116.224h102.4v116.224c30.824 18.035 51.2 50.978 51.2 88.681 0 56.554-45.846 102.4-102.4 102.4s-102.4-45.846-102.4-102.4c0-37.703 20.376-70.646 50.717-88.419l0.483-0.262zM358.4 652.8v-102.4h307.2v102.4c0 84.831-68.769 153.6-153.6 153.6s-153.6-68.769-153.6-153.6v0z" />
<glyph unicode="&#xe90f;" glyph-name="hide" data-tags="hide" d="M655.872 736.768l-90.624-91.136c-15.919 4.443-34.2 6.998-53.078 6.998-113.108 0-204.8-91.692-204.8-204.8 0-18.877 2.554-37.158 7.335-54.516l-0.338 1.438-141.312-140.8c-67.584 51.2-123.904 117.76-162.816 194.048 95.239 183.856 284.061 307.329 501.722 307.329 50.98 0 100.377-6.773 147.342-19.469l-3.943 0.908zM850.432 642.048c68.096-51.2 124.416-117.76 163.84-194.048-95.198-183.988-284.089-307.568-501.843-307.568-51.308 0-101.013 6.861-148.249 19.715l3.948-0.915 90.624 91.136c15.919-4.443 34.2-6.998 53.078-6.998 113.108 0 204.8 91.692 204.8 204.8 0 18.877-2.554 37.158-7.335 54.516l0.338-1.438 141.312 140.8zM837.632 846.336l72.704-72.704-723.968-723.968-72.704 72.704 723.968 723.968z" />
<glyph unicode="&#xe910;" glyph-name="buger" data-tags="buger" d="M1024 149.333v-85.335c0-23.333-19.332-42.665-42.665-42.665h-938.671c-23.333 0-42.665 19.332-42.665 42.665v85.335c0 23.333 19.332 42.665 42.665 42.665h938.666c23.333 0 42.667-19.332 42.667-42.665zM1024 490.666v-85.333c0-23.333-19.332-42.665-42.665-42.665h-938.671c-23.333 0-42.665 19.332-42.665 42.665v85.334c0 23.333 19.332 42.665 42.665 42.665h938.666c23.333 0 42.667-19.332 42.667-42.665zM1024 832.001v-85.334c0-23.333-19.332-42.665-42.665-42.665h-938.671c-23.333 0-42.665 19.332-42.665 42.665v85.334c0 23.333 19.332 42.665 42.665 42.665h938.666c23.333 0 42.667-19.332 42.667-42.665z" />
<glyph unicode="&#xe911;" glyph-name="caret-down" data-tags="caret-down" d="M1024 661.419c0-8.206-4.105-17.442-10.26-23.599l-478.141-478.141c-6.158-6.158-15.388-10.26-23.599-10.26s-17.442 4.105-23.599 10.26l-478.141 478.141c-6.158 6.158-10.26 15.388-10.26 23.599s4.105 17.442 10.26 23.599l51.299 51.299c6.158 6.158 14.364 10.262 23.602 10.262 8.206 0 17.442-4.102 23.599-10.257l403.238-403.235 403.235 403.235c6.158 6.158 15.393 10.26 23.602 10.26s17.442-4.102 23.599-10.257l51.299-51.299c6.158-6.158 10.26-15.393 10.26-23.602z" />
<glyph unicode="&#xe912;" glyph-name="caret-up" data-tags="caret-up" d="M1023.994 234.581c0-8.206-4.105-17.442-10.26-23.599l-51.299-51.299c-6.158-6.158-14.364-10.262-23.602-10.262-8.206 0-17.442 4.105-23.599 10.26l-403.234 403.234-403.238-403.234c-6.158-6.158-15.388-10.262-23.599-10.262s-17.442 4.105-23.599 10.26l-51.299 51.299c-6.161 6.163-10.265 15.393-10.265 23.603s4.105 17.442 10.26 23.599l478.141 478.141c6.158 6.158 15.388 10.26 23.599 10.26s17.442-4.105 23.599-10.26l478.141-478.141c6.158-6.158 10.26-15.388 10.26-23.599z" />
<glyph unicode="&#xe913;" glyph-name="close" data-tags="close" d="M605.382 447.563l398.729 398.737c25.947 25.936 25.947 67.872 0 93.808-25.938 25.937-67.872 25.937-93.808 0l-398.739-398.73-398.721 398.729c-25.95 25.938-67.869 25.938-93.81 0-25.95-25.935-25.95-67.869 0-93.807l398.721-398.737-398.719-398.731c-25.948-25.94-25.948-67.873 0-93.81 6.153-6.17 13.464-11.062 21.513-14.395 8.050-3.337 16.678-5.050 25.392-5.042 16.98 0 33.966 6.5 46.902 19.437l398.719 398.735 398.739-398.736c6.154-6.166 13.466-11.060 21.514-14.396s16.677-5.050 25.39-5.042c16.98 0 33.967 6.5 46.903 19.437 25.945 25.94 25.945 67.869 0 93.81l-398.729 398.728z" />
<glyph unicode="&#xe914;" glyph-name="contact-us" data-tags="contact-us" d="M222.953 418.822h70.866c-68.072 88.164-68.066 229.045 0.002 317.201h-62.844c120.527 219.376 442.070 219.225 562.537 0h-62.853c68.076-88.164 68.070-229.045 0-317.201h70.866c52.008 0 94.315 42.31 94.315 94.314v128.572c0 21.794-7.45 41.868-19.912 57.858-120.274 346.946-606.669 347.547-727.388-0.006-12.456-15.988-19.906-36.060-19.906-57.85v-128.572c0-52.006 42.31-94.316 94.316-94.316zM935.185 26.856c-36.529 167.93-189.919 340.556-422.956 340.58-223.554 0-384.139-162.723-423.319-340.090-10.014-47.073 25.966-91.366 73.968-91.346 151.11 0 552.513 0 698.709 0.466 47.64 0 83.244 43.729 73.6 90.388zM576.499 511.036h134.931c46.495 132.106-58.557 278.94-199.22 276.381-115.787 0.002-209.985-94.196-209.985-209.982 0.434-201.356 258.247-285.37 377.507-126.459h-103.234c-39.787 1.47-39.785 58.593 0 60.060z" />
<glyph unicode="&#xe915;" glyph-name="copy" data-tags="copy" d="M859.146-63.572h-511.565c-43.61 0-85.434 17.324-116.27 48.16s-48.16 72.656-48.16 116.267v511.564c0 43.611 17.324 85.434 48.16 116.27s72.659 48.16 116.27 48.16h511.565c43.61 0 85.433-17.324 116.268-48.16s48.16-72.659 48.16-116.27v-511.564c0-43.61-17.326-85.433-48.16-116.268s-72.657-48.16-116.268-48.16zM292.748 849.952h538.695c-11.37 32.035-32.371 59.77-60.13 79.394-27.753 19.629-60.902 30.186-94.893 30.228h-511.562c-43.611 0-85.434-17.326-116.27-48.16s-48.161-72.661-48.161-116.273v-511.562c0.040-33.99 10.599-67.139 30.225-94.893 19.628-27.759 47.36-48.759 79.396-60.13v538.697c0 48.454 19.248 94.925 53.511 129.189s80.733 53.511 129.19 53.511z" />
<glyph unicode="&#xe916;" glyph-name="dashboard" data-tags="dashboard" d="M940.862 644.793l-370.692 294.763c-33.54 27.26-81.2 27.26-114.74 0l-370.69-294.763c-21.182-17.038-33.54-40.892-33.54-68.153v-553.743c0-47.707 40.6-86.896 90.026-86.896h741.381c49.43 0 90.026 39.188 90.026 86.897v555.447c1.766 25.557-10.588 51.114-31.77 66.45zM815.529 104.678c0-20.444-17.65-37.484-38.831-37.484h-526.030c-21.183 0-38.837 17.040-38.837 37.484v34.081c0 20.443 17.652 37.483 38.836 37.483h526.031c21.18 0 38.831-17.040 38.831-37.484v-34.079z" />
<glyph unicode="&#xe917;" glyph-name="email" data-tags="email" d="M950.857 813.714h-877.714c-40.395 0-73.143-32.748-73.143-73.143v-585.143c0-40.395 32.747-73.143 73.143-73.143h877.714c40.395 0 73.143 32.746 73.143 73.142v585.144c0 40.395-32.747 73.143-73.143 73.143zM870.4 740.571l-358.4-247.955-358.4 247.956zM73.144 155.43v551.863l418.010-289.28c5.82-4.080 13.048-6.522 20.847-6.522s15.027 2.44 20.963 6.6l-0.118-0.077 418.010 289.28v-551.863z" />
<glyph unicode="&#xe918;" glyph-name="info" data-tags="info" d="M511.98 959.571c-282.499 0-511.552-229.055-511.552-511.552s229.055-511.592 511.552-511.592c282.497 0 511.592 229.096 511.592 511.592s-229.095 511.553-511.592 511.553zM618.471 166.736c-26.33-10.397-47.29-18.279-63.011-23.734-17.635-5.755-36.107-8.525-54.654-8.18-31.875 0-56.69 7.788-74.358 23.343-17.67 15.547-26.462 35.251-26.462 59.201 0 9.309 0.649 18.839 1.948 28.539 1.607 11.049 3.731 22.019 6.367 32.869l32.958 116.412c2.901 11.174 5.412 21.785 7.404 31.659 1.994 9.962 2.948 19.099 2.948 27.414 0 14.811-3.075 25.205-9.182 31.051-6.193 5.845-17.842 8.705-35.209 8.705-8.489 0-17.236-1.257-26.202-3.897-8.878-2.731-16.586-5.199-22.911-7.624l8.706 35.86c21.568 8.791 42.225 16.326 61.931 22.561 18.019 6.029 36.869 9.215 55.867 9.442 31.659 0 56.083-7.709 73.279-22.954 17.106-15.287 25.723-35.167 25.723-59.59 0-5.069-0.605-13.99-1.777-26.723-1.016-11.898-3.221-23.665-6.582-35.123l-32.785-116.065c-2.938-10.499-5.353-21.135-7.232-31.875-1.786-8.94-2.843-18.002-3.162-27.111 0-15.417 3.421-25.944 10.351-31.531 6.844-5.585 18.839-8.403 35.816-8.403 8.013 0 16.976 1.437 27.111 4.206 10.047 2.77 17.323 5.242 21.914 7.359l-8.793-35.813zM612.67 637.838c-14.908-14.058-34.731-21.708-55.217-21.308-21.48 0-40.017 7.102-55.434 21.308-7.331 6.449-13.189 14.402-17.172 23.318s-6 18.584-5.911 28.348c0 20.137 7.795 37.461 23.083 51.797 14.938 14.168 34.848 21.898 55.434 21.522 21.526 0 39.974-7.144 55.218-21.522 15.287-14.336 22.954-31.66 22.954-51.797 0-20.225-7.667-37.462-22.954-51.667z" />
<glyph unicode="&#xe919;" glyph-name="left" data-tags="left" d="M332.866 453.978c147.037 147.484 290.75 291.451 431.137 431.776 7.086 7.439 11.446 17.53 11.446 28.641s-4.36 21.202-11.462 28.656l0.016-0.016c-19.881 22.122-51.335 20.203-65.655 5.116-145.5-145.886-297.715-298.357-456.642-457.476-12.594-10.356-18.924-22.631-18.924-36.695 0-14.128 6.33-26.723 18.924-37.845l478.38-467.065c8.498-7.837 19.895-12.643 32.417-12.643 13.457 0 25.616 5.551 34.313 14.488l0.010 0.010c22.887 22.951 14.064 45.582 3.707 56.321-197.194 191.851-346.282 337.459-495.162 483.279l37.432-36.545z" />
<glyph unicode="&#xe91a;" glyph-name="phone" data-tags="phone" d="M253.541 934.077c38.45-53.049 84.305-121.516 137.355-205.203 13.364-22.618 11.308-49.758-5.965-81.63-6.579-13.365-23.234-43.796-49.758-91.705 29.198-41.124 73.61-91.705 133.445-151.333s109.597-104.248 149.278-133.445c47.704 27.964 78.341 45.030 91.706 51.815 17.272 9.252 33.927 13.982 49.758 13.982 11.927 0 22.619-2.673 31.871-8.019 61.069-37.217 130.156-83.071 207.057-137.352 14.598-10.691 22.823-25.292 24.879-43.797 2.055-18.711-3.701-38.45-16.861-59.834-6.58-9.252-17.273-22.825-31.871-40.919-14.6-17.889-36.599-40.506-65.799-67.647s-53.049-40.92-71.76-40.92h-2.056c-140.437 5.55-313.565 110.827-518.567 315.826-205.203 205.21-310.48 378.133-315.826 518.774 0 18.505 13.571 42.768 40.918 72.789 27.141 29.813 49.554 51.403 66.618 64.768 17.272 13.159 31.87 23.85 43.796 31.87 14.599 10.69 31.255 15.832 49.759 15.832 22.824 0 39.89-8.019 52.021-23.85zM187.746 892.339c-27.964-19.943-54.080-42.355-78.754-66.824-24.47-24.673-38.862-42.767-42.768-54.694 5.346-123.575 103.836-280.871 295.677-472.095s349.548-290.124 472.918-296.704c10.691 3.907 28.169 18.505 52.844 43.796s46.881 51.815 66.619 79.573c3.907 5.346 5.346 9.869 3.907 13.981-79.573 55.723-145.988 100.136-199.243 133.448-5.346 0-11.925-2.058-19.943-5.965-11.926-6.579-41.74-23.234-89.649-49.758l-33.927-19.943-33.926 22c-43.796 30.432-96.844 77.723-159.352 141.464-62.301 62.302-108.769 115.556-139.407 159.353l-23.85 31.87 19.943 35.776c26.525 47.702 43.18 77.722 49.758 89.648 3.907 8.019 5.965 14.598 5.965 19.943-47.295 75.464-91.092 141.878-130.979 199.039h-2.056c-5.141 0-9.87-1.439-13.776-3.907z" />
<glyph unicode="&#xe91b;" glyph-name="polis" data-tags="polis" d="M667.271 659.772c-40.496 0-73.439 31.368-73.439 69.925v229.752h-375.588c-63.634 0-115.404-49.291-115.404-109.88v-803.139c0-60.585 51.771-109.878 115.404-109.878h587.512c63.635 0 115.404 49.293 115.404 109.878v613.343h-253.888zM274.897 240.223h152.585c17.381 0 31.474-13.415 31.474-29.965s-14.093-29.971-31.474-29.971h-152.585c-17.381 0-31.474 13.421-31.474 29.971s14.093 29.965 31.474 29.965zM243.423 370.086c0 16.55 14.091 29.965 31.472 29.965h461.614c17.385 0 31.474-13.415 31.474-29.965s-14.091-29.971-31.474-29.971h-461.614c-17.381 0-31.474 13.419-31.474 29.97zM736.511 559.88c17.385 0 31.474-13.419 31.474-29.968s-14.091-29.968-31.474-29.968h-461.614c-17.381 0-31.474 13.419-31.474 29.969s14.093 29.968 31.474 29.968h461.614z" />
<glyph unicode="&#xe91c;" glyph-name="right" data-tags="right" d="M323.875 947.788l462.403-463.233c8.031-7.684 13.024-18.491 13.024-30.462v-0.437c0-12.35-4.976-23.537-13.029-31.67l0.005 0.004c-167.264-163.178-328.462-320.675-483.596-472.488-7.981-7.469-39.902-26.048-64.544 1.533-24.642 27.643-9.702 51.711 0 61.668l451.23 441.016-430.736 431.503c-15.705 21.642-14.428 41.625 3.831 59.947s38.751 19.152 61.415 2.554z" />
<glyph unicode="&#xe91d;" glyph-name="sign-out" data-tags="sign-out" d="M205.057 959.569c-54.272 0-106.319-21.557-144.695-59.932s-59.934-90.425-59.934-144.697v-255.786h541.55l-117.305 117.306c-9.318 9.648-14.474 22.571-14.358 35.984s5.497 26.244 14.982 35.73c9.485 9.484 22.315 14.865 35.73 14.98s26.335-5.040 35.983-14.358l204.987-204.987c9.356-9.512 14.611-22.313 14.631-35.656v-0.307c0-13.915-5.628-26.501-14.632-35.71l-0.41-0.357-204.579-204.629c-9.598-9.592-22.614-14.977-36.185-14.973s-26.583 5.402-36.175 14.999c-9.592 9.596-14.977 22.616-14.973 36.188 0.004 13.567 5.399 26.582 14.997 36.174l117.305 117.304h-541.549v-255.786c0-54.273 21.559-106.321 59.934-144.693 38.376-38.378 90.424-59.936 144.695-59.936h613.887c54.273 0 106.321 21.558 144.693 59.936 38.378 38.373 59.936 90.42 59.936 144.693v613.887c0 54.272-21.558 106.319-59.936 144.695-38.372 38.376-90.42 59.935-144.693 59.935h-613.887z" />
<glyph unicode="&#xe91e;" glyph-name="term-condition" data-tags="term-condition" d="M895.132 136.894l-104.247-104.253-48.237 48.16c-3.371 3.489-7.404 6.277-11.858 8.19-4.461 1.913-9.254 2.921-14.108 2.968-4.85 0.040-9.664-0.885-14.15-2.722-4.491-1.836-8.573-4.552-12.002-7.98-3.432-3.433-6.143-7.51-7.983-12.002-1.838-4.491-2.764-9.305-2.718-14.155 0.040-4.85 1.049-9.648 2.962-14.104 1.918-4.46 4.701-8.493 8.19-11.862l74.071-73.994c3.381-3.407 7.408-6.108 11.842-7.949 4.436-1.846 9.188-2.794 13.991-2.794 4.798 0 9.556 0.946 13.986 2.794 4.436 1.841 8.461 4.543 11.848 7.949l130.083 130.087c3.489 3.365 6.277 7.404 8.19 11.858 1.913 4.461 2.921 9.254 2.968 14.104 0.040 4.856-0.885 9.664-2.722 14.155s-4.553 8.568-7.981 12c-3.433 3.434-7.51 6.145-12.002 7.981s-9.305 2.763-14.155 2.722c-4.85-0.040-9.648-1.049-14.104-2.968-4.461-1.913-8.493-4.696-11.863-8.185zM760.311 959.572h-511.568c-100.853 0-182.704-81.852-182.704-182.704v-657.738c0-100.852 81.852-182.703 182.704-182.703h431.545l-40.926 40.926c-20.53 20.627-32.061 48.542-32.061 77.652 0 29.106 11.53 57.020 32.060 77.647 19.919 19.967 46.783 31.457 74.98 32.071 28.193 0.613 55.537-9.7 76.3-28.781l52.984 52.62c27.042 27.035 64.678 36.904 99.393 29.595v558.71c0 100.854-81.852 182.705-182.707 182.705zM723.771 228.755h-438.488c-20.097 0-36.539 16.442-36.539 36.541 0 20.093 16.442 36.541 36.539 36.541h438.488c20.1 0 36.541-16.446 36.541-36.541 0-20.1-16.442-36.541-36.541-36.541zM723.771 411.458h-438.488c-20.097 0-36.539 16.442-36.539 36.541s16.442 36.541 36.539 36.541h438.488c20.1 0 36.541-16.442 36.541-36.541s-16.442-36.541-36.541-36.541zM723.771 594.163h-438.488c-20.097 0-36.539 16.443-36.539 36.539s16.442 36.541 36.539 36.541h438.488c20.1 0 36.541-16.443 36.541-36.539s-16.442-36.541-36.541-36.541z" />
<glyph unicode="&#xe91f;" glyph-name="user" data-tags="user" d="M505.539 466.739c67.764 0 126.443 24.306 174.388 72.259 47.949 47.944 72.248 106.607 72.248 174.378 0 67.75-24.302 126.421-72.254 174.381-47.956 47.938-106.628 72.241-174.383 72.241-67.774 0-126.439-24.304-174.382-72.251s-72.257-106.614-72.257-174.373c0-67.77 24.312-126.442 72.265-174.388 47.954-47.937 106.624-72.249 174.374-72.249zM937.092 172.605c-1.39 19.95-4.185 41.718-8.303 64.696-4.153 23.163-9.505 45.049-15.912 65.060-6.617 20.68-15.618 41.096-26.738 60.671-11.55 20.311-25.109 37.998-40.329 52.551-15.912 15.226-35.4 27.468-57.931 36.401-22.449 8.88-47.333 13.381-73.948 13.381-10.456 0-20.565-4.286-40.090-17-13.873-9.038-27.796-18.011-41.756-26.922-13.414-8.548-31.586-16.555-54.031-23.806-21.898-7.086-44.132-10.679-66.078-10.679-21.944 0-44.173 3.594-66.095 10.679-22.419 7.244-40.592 15.249-53.991 23.796-15.541 9.931-29.6 18.993-41.797 26.939-19.5 12.709-29.617 17-40.069 17-26.625 0-51.499-4.507-73.945-13.399-22.514-8.914-42.008-21.156-57.937-36.398-15.209-14.563-28.78-32.237-40.312-52.544-11.115-19.568-20.116-39.985-26.741-60.677-6.4-20.010-11.75-41.889-15.907-65.053-4.119-22.947-6.914-44.722-8.299-64.719-1.376-20.131-2.058-40.3-2.044-60.471 0-53.452 16.991-96.724 50.5-128.638 33.093-31.493 76.882-47.473 130.13-47.473h493.060c53.25 0 97.019 15.967 130.123 47.467 33.515 31.893 50.51 75.172 50.51 128.648-0.013 20.632-0.707 40.988-2.071 60.488z" />
<glyph unicode="&#xe920;" glyph-name="wa" data-tags="wa" d="M872.957 811.006c-91.123 92.016-217.487 148.994-357.161 148.994-0.615 0-1.23 0-1.845-0.004h0.095c-279.551 0.001-507.391-227.84-507.391-507.39 0-89.6 23.552-176.64 67.585-253.44l-71.678-263.165 268.8 70.656c74.24-40.448 157.694-61.952 242.686-61.952 279.551 0 507.391 227.841 507.391 507.391 0 135.681-52.736 263.168-148.48 358.911zM514.047 30.718c-75.777 0-150.017 20.48-215.040 58.88l-15.36 9.216-159.744-41.984 42.497 155.648-10.24 15.872c-40.426 63.63-64.45 141.13-64.513 224.239v0.017c0 232.449 189.441 421.888 421.887 421.888 112.64 0 218.623-44.030 297.984-123.904 76.224-75.886 123.394-180.904 123.394-296.936 0-0.55 0-1.098-0.004-1.645v0.085c1.024-232.448-188.416-421.376-420.863-421.376zM745.469 346.108c-12.8 6.144-75.265 36.864-86.531 41.472-11.775 4.096-19.967 6.144-28.67-6.144-8.704-12.8-32.768-41.472-39.936-49.665-7.168-8.704-14.848-9.728-27.648-3.072-12.8 6.144-53.76 19.968-101.888 62.976-37.887 33.792-62.976 75.264-70.656 88.064-7.168 12.8-1.024 19.456 5.632 26.112 5.632 5.632 12.8 14.848 18.944 22.016s8.704 12.8 12.8 20.992c4.096 8.704 2.048 15.872-1.024 22.016s-28.67 68.607-38.912 94.208c-10.24 24.576-20.992 21.504-28.67 22.016h-24.577c-8.704 0-22.016-3.072-33.792-15.872-11.264-12.8-44.030-43.52-44.030-105.984s45.566-122.88 51.71-131.073c6.144-8.704 89.6-136.704 216.575-191.487 30.207-13.31 53.76-20.99 72.192-26.623 30.207-9.728 57.855-8.192 79.872-5.12 24.576 3.584 75.264 30.72 85.504 60.417 10.752 29.696 10.752 54.783 7.168 60.417s-11.264 8.19-24.064 14.335z" />
<glyph unicode="&#xe921;" glyph-name="show" data-tags="show" d="M10.24 448c95.226 183.898 284.070 307.405 501.76 307.405s406.534-123.507 500.282-304.271l1.478-3.134c-95.226-183.898-284.070-307.405-501.76-307.405s-406.534 123.507-500.282 304.271l-1.478 3.134zM512 243.2c113.108 0 204.8 91.692 204.8 204.8s-91.692 204.8-204.8 204.8v0c-113.108 0-204.8-91.692-204.8-204.8s91.692-204.8 204.8-204.8v0zM512 345.6c-56.554 0-102.4 45.846-102.4 102.4s45.846 102.4 102.4 102.4v0c56.554 0 102.4-45.846 102.4-102.4s-45.846-102.4-102.4-102.4v0z" />
<glyph unicode="&#xe922;" glyph-name="email-open" data-tags="email-open" d="M430.802 768.001h-238.8v-354.801l-191.6 141.8c3.2 36.2 21.8 69.8 51.4 91.6l44.2 32.8v88.6c0 53 43 96 96 96h153.2l99.8 73.8c19.4 14.4 42.798 22.2 67 22.2s47.601-7.8 67-22l99.799-74h153.201c53.002 0 96-43 96-96v-88.6l44.201-32.8c29.599-21.8 48.2-55.4 51.4-91.6l-191.601-141.8v354.801h-401.2zM0.001 64.001v411.8l435.2-322.4c22.2-16.399 49.2-25.4 76.8-25.4 27.602 0 54.6 8.801 76.8 25.4l435.2 322.4v-411.8c0-70.6-57.4-128-128-128h-768.001c-70.6 0-128 57.4-128 128zM352.002 640.001h320c17.603 0 32-14.4 32-32s-14.397-32-32-32h-320c-17.6 0-32 14.4-32 32s14.4 32 32 32zM352.002 512.001h320c17.603 0 32-14.4 32-32s-14.397-32-32-32h-320c-17.6 0-32 14.4-32 32s14.4 32 32 32z" />
<glyph unicode="&#xe923;" glyph-name="calendar" data-tags="calendar" d="M746.345 846.002v76.986c0 20.234-16.777 37.012-37.012 37.012-20.23 0-37.012-16.778-37.012-37.012v-74.025h-320.771v74.025c0 20.234-16.779 37.012-37.012 37.012s-37.012-16.778-37.012-37.012v-76.986c-133.244-12.337-197.893-91.79-207.763-209.736-0.987-14.312 10.857-26.156 24.676-26.156h834.998c14.313 0 26.157 12.337 24.677 26.156-9.872 117.945-74.522 197.398-207.766 209.736zM906.8 536.094h-789.598c-27.142 0-49.349-22.207-49.349-49.349v-303.995c0-148.049 74.025-246.75 246.749-246.75h394.795c172.726 0 246.75 98.701 246.75 246.75v303.995c0 27.142-22.207 49.349-49.348 49.349zM374.315 123.038c-2.468-1.978-4.934-4.441-7.402-5.922-2.961-1.978-5.922-3.458-8.883-4.441-2.961-1.48-5.922-2.469-8.883-2.961-3.454-0.497-6.415-0.989-9.871-0.989-6.415 0-12.831 1.48-18.752 3.95-6.416 2.464-11.351 5.922-16.285 10.363-8.883 9.375-14.312 22.207-14.312 35.034 0 12.833 5.429 25.666 14.312 35.040 4.934 4.441 9.87 7.894 16.285 10.363 8.883 3.95 18.752 4.933 28.622 2.961 2.961-0.492 5.922-1.48 8.883-2.961 2.961-0.989 5.922-2.469 8.883-4.441 2.468-1.972 4.934-3.95 7.402-5.922 8.883-9.375 14.312-22.207 14.312-35.040 0-12.827-5.429-25.66-14.312-35.034zM374.315 295.758c-9.376-8.883-22.207-14.308-35.039-14.308s-25.661 5.425-35.038 14.308c-8.883 9.38-14.312 22.207-14.312 35.040s5.429 25.66 14.312 35.040c13.817 13.816 35.532 18.257 53.79 10.363 6.415-2.469 11.844-5.922 16.285-10.363 8.883-9.38 14.312-22.207 14.312-35.040s-5.429-25.66-14.312-35.040zM547.041 123.038c-9.38-8.883-22.207-14.313-35.040-14.313s-25.661 5.43-35.039 14.313c-8.883 9.375-14.311 22.207-14.311 35.034 0 12.833 5.428 25.666 14.311 35.040 18.26 18.257 51.815 18.257 70.079 0 8.883-9.375 14.308-22.207 14.308-35.040 0-12.827-5.425-25.66-14.308-35.034zM547.041 295.758c-2.469-1.972-4.939-3.944-7.402-5.922-2.961-1.972-5.922-3.453-8.883-4.441-2.961-1.48-5.922-2.464-8.883-2.961-3.458-0.492-6.419-0.983-9.872-0.983-12.832 0-25.661 5.425-35.039 14.308-8.883 9.38-14.311 22.207-14.311 35.040s5.428 25.66 14.311 35.040c4.441 4.441 9.871 7.894 16.285 10.363 18.26 7.894 39.971 3.453 53.794-10.363 8.883-9.38 14.308-22.207 14.308-35.040s-5.425-25.66-14.308-35.040zM719.761 123.038c-9.375-8.883-22.207-14.313-35.034-14.313-12.833 0-25.666 5.43-35.040 14.313-8.883 9.375-14.313 22.207-14.313 35.034 0 12.833 5.43 25.666 14.313 35.040 18.257 18.257 51.817 18.257 70.075 0 8.883-9.375 14.313-22.207 14.313-35.040 0-12.827-5.43-25.66-14.313-35.034zM719.761 295.758c-2.464-1.972-4.933-3.944-7.402-5.922-2.961-1.972-5.922-3.453-8.883-4.441-2.961-1.48-5.922-2.464-8.883-2.961-3.453-0.492-6.905-0.983-9.866-0.983-12.833 0-25.666 5.425-35.040 14.308-8.883 9.38-14.313 22.207-14.313 35.040s5.43 25.66 14.313 35.040c4.933 4.441 9.872 7.894 16.285 10.363 8.883 3.944 18.755 4.933 28.621 2.961 2.961-0.497 5.922-1.48 8.883-2.961 2.961-0.989 5.922-2.469 8.883-4.441 2.469-1.978 4.939-3.95 7.402-5.922 8.883-9.38 14.313-22.207 14.313-35.040s-5.43-25.66-14.313-35.040z" />
<glyph unicode="&#xe924;" glyph-name="triple-dot" data-tags="triple-dot" d="M512 163.553c30.176 0 59.116-11.987 80.453-33.321 21.338-21.34 33.325-50.278 33.325-80.452 0-30.18-11.987-59.119-33.325-80.452-21.338-21.34-50.277-33.328-80.453-33.328s-59.116 11.987-80.452 33.328c-21.338 21.333-33.325 50.272-33.325 80.452 0 30.174 11.987 59.113 33.325 80.452 21.338 21.333 50.277 33.321 80.452 33.321zM512 561.778c30.176 0 59.116-11.987 80.453-33.325s33.325-50.277 33.325-80.453c0-30.176-11.987-59.116-33.325-80.453s-50.277-33.325-80.453-33.325c-30.175 0-59.116 11.987-80.452 33.325s-33.325 50.277-33.325 80.453c0 30.176 11.987 59.116 33.325 80.453s50.277 33.325 80.452 33.325zM512 960c30.176 0 59.116-11.987 80.453-33.325s33.325-50.277 33.325-80.453c0-30.175-11.987-59.116-33.325-80.453s-50.277-33.325-80.453-33.325c-30.175 0-59.116 11.987-80.452 33.325s-33.325 50.277-33.325 80.453c0 30.176 11.987 59.116 33.325 80.453s50.277 33.325 80.452 33.325z" />
<glyph unicode="&#xe925;" glyph-name="filter" data-tags="filter" d="M870.403 908.796h-716.804c-72.394 0-108.595 0-131.071-21.094-22.53-21.095-22.53-55.091-22.53-123.033v-35.328c0-53.095 0-79.666 13.314-101.683s37.529-35.738 86.117-63.077l149.145-83.968c32.563-18.329 48.896-27.494 60.569-37.632 24.269-21.043 39.219-45.824 45.977-76.287 3.277-14.541 3.277-31.641 3.277-65.794v-136.706c0-46.541 0-69.831 12.902-87.957 12.902-18.181 35.84-27.138 81.61-45.060 96.204-37.575 144.282-56.371 178.487-34.965 34.197 21.35 34.197 70.244 34.197 168.038v136.706c0 34.097 0 51.2 3.281 65.79 6.426 29.842 22.622 56.684 46.024 76.288 11.625 10.086 27.955 19.251 60.518 37.632l149.145 83.967c48.537 27.29 72.862 40.959 86.12 62.976 13.314 22.017 13.314 48.64 13.314 101.784v35.328c0 67.891 0 101.885-22.53 122.983-22.426 21.094-58.626 21.094-131.069 21.094z" />
<glyph unicode="&#xe926;" glyph-name="gear" data-tags="gear" d="M991.884 626.835c6.401-17.405 0.998-36.807-12.803-49.21l-86.619-78.816c2.202-16.605 3.403-33.607 3.403-50.81s-1.2-34.209-3.403-50.81l86.619-78.816c13.801-12.402 19.204-31.804 12.803-49.21-8.802-23.803-19.406-46.611-31.606-68.616l-9.404-16.201c-13.203-22.004-28.006-42.808-44.207-62.412-11.804-14.403-31.408-19.204-49.012-13.603l-111.42 35.405c-26.805-20.602-56.411-37.805-88.017-50.81l-25.007-114.221c-4.001-18.206-18.004-32.604-36.407-35.607-27.605-4.599-56.011-6.999-85.015-6.999-29.008 0-57.413 2.4-85.019 6.999-18.404 3.003-32.406 17.401-36.407 35.607l-25.003 114.221c-31.606 13.005-61.213 30.208-88.018 50.81l-111.222-35.604c-17.603-5.601-37.207-0.602-49.010 13.6-16.203 19.604-31.006 40.411-44.209 62.415l-9.402 16.201c-12.202 22.004-22.805 44.809-31.606 68.612-6.401 17.405-1 36.807 12.803 49.213l86.617 78.813c-2.2 16.803-3.401 33.809-3.401 51.012s1.2 34.205 3.401 50.81l-86.617 78.816c-13.803 12.402-19.204 31.804-12.803 49.21 8.802 23.805 19.404 46.609 31.606 68.614l9.402 16.203c13.203 22.004 28.006 42.808 44.209 62.412 11.802 14.403 31.406 19.204 49.010 13.603l111.422-35.407c26.805 20.604 56.41 37.807 88.016 50.81l25.007 114.223c4.001 18.204 18.004 32.606 36.407 35.607 27.605 4.801 56.011 7.201 85.015 7.201 29.008 0 57.413-2.4 85.019-7.001 18.404-3.001 32.406-17.403 36.407-35.607l25.003-114.223c31.606-13.003 61.212-30.206 88.017-50.81l111.424 35.407c17.603 5.601 37.207 0.6 49.008-13.603 16.205-19.604 31.008-40.408 44.211-62.412l9.4-16.203c12.204-22.004 22.805-44.809 31.606-68.612l-0.198-0.202zM511.987 287.968c42.443 0 83.149 16.861 113.161 46.873 30.009 30.009 46.87 70.715 46.87 113.158s-16.861 83.149-46.87 113.158c-30.012 30.012-70.718 46.873-113.161 46.873s-83.146-16.861-113.158-46.873c-30.012-30.009-46.873-70.715-46.873-113.158s16.861-83.149 46.873-113.158c30.012-30.012 70.715-46.873 113.158-46.873z" />
<glyph unicode="&#xe927;" glyph-name="edit" data-tags="edit" d="M972.981-64.149h-921.962c-20.999 0-38.415 17.418-38.415 38.415s17.415 38.415 38.415 38.415h921.962c20.997 0 38.415-17.418 38.415-38.415s-17.418-38.415-38.415-38.415zM871.597 884.362c-99.373 99.366-196.685 101.929-298.614 0l-61.977-61.977c-5.122-5.121-7.17-13.316-5.121-20.487 38.927-135.733 147.514-244.32 283.244-283.248 2.051-0.513 4.103-1.024 6.146-1.024 5.639 0 10.756 2.048 14.86 6.146l61.465 61.975c50.708 50.196 75.294 98.855 75.294 148.027 0.507 50.708-24.079 99.879-75.294 150.587zM696.969 472.082c-14.851 7.171-29.196 14.342-43.023 22.538-11.268 6.658-22.026 13.829-32.781 21.513-8.707 5.634-18.95 13.829-28.683 22.023-1.024 0.513-4.61 3.586-8.707 7.683-16.902 14.342-35.855 32.781-52.757 53.269-1.537 1.024-4.097 4.61-7.683 9.219-5.122 6.146-13.829 16.39-21.513 28.171-6.146 7.683-13.316 18.951-19.975 30.221-8.195 13.829-15.366 27.659-22.537 42-9.403 20.147-35.845 26.132-51.565 10.412l-288.025-288.025c-6.659-6.659-12.805-19.463-14.342-28.172l-27.659-196.175c-5.122-34.827 4.61-67.611 26.123-89.63 18.439-17.933 44.049-27.659 71.708-27.659 6.146 0 12.292 0.507 18.439 1.537l196.685 27.659c9.219 1.537 22.026 7.683 28.172 14.336l288.502 288.502c15.405 15.406 9.611 41.915-10.38 50.577z" />
<glyph unicode="&#xe928;" glyph-name="user-check" data-tags="user-check" d="M153.6 704c0 67.896 21.577 133.010 59.985 181.020s90.499 74.98 144.815 74.98c54.316 0 106.408-26.971 144.815-74.98s59.985-113.124 59.985-181.020c0-67.896-21.577-133.010-59.985-181.020s-90.499-74.98-144.815-74.98c-54.316 0-106.408 26.972-144.815 74.98s-59.985 113.124-59.985 181.020zM0-4.602c0 197.005 127.68 356.602 285.28 356.602h146.24c157.6 0 285.28-159.597 285.28-356.602 0-32.8-21.28-59.398-47.52-59.398h-621.76c-26.24 0-47.52 26.598-47.52 59.398zM1000 606l-204.8-256c-15.040-18.8-39.36-18.8-54.24 0l-102.4 128c-15.040 18.8-15.040 49.2 0 67.8s39.36 18.8 54.24 0l75.2-94 177.6 222.2c15.040 18.8 39.36 18.8 54.24 0s15.040-49.2 0-67.8l0.16-0.2z" />
<glyph unicode="&#xe929;" glyph-name="document" data-tags="document" d="M667.44 660c-40.54 0-73.52 31.402-73.52 70v230h-375.991c-63.703 0-115.529-49.346-115.529-110v-803.998c0-60.654 51.826-110.002 115.529-110.002h588.145c63.701 0 115.525 49.348 115.525 110.002v613.998h-254.158zM274.643 239.999h152.75c17.401 0 31.508-13.431 31.508-29.995 0-16.57-14.107-30.001-31.508-30.001h-152.75c-17.401 0-31.508 13.431-31.508 30.001 0 16.564 14.107 29.995 31.508 29.995zM243.135 370c0 16.569 14.107 30.001 31.508 30.001h462.114c17.4 0 31.507-13.432 31.507-30.001 0-16.564-14.107-30.001-31.507-30.001h-462.114c-17.401 0-31.508 13.437-31.508 30.001zM736.757 560.001c17.4 0 31.507-13.432 31.507-30s-14.107-30-31.507-30h-462.114c-17.401 0-31.508 13.432-31.508 30s14.107 30 31.508 30h462.114zM656.935 730.001c0-5.513 4.711-10 10.504-10h240.113c-5.788 10.209-13.246 19.479-22.082 27.464l-202.543 182.443c-7.766 6.998-16.515 12.937-25.991 17.65l-0.002-217.558z" />
<glyph unicode="&#xe92a;" glyph-name="square-check" data-tags="square-check" d="M512.001-63.999c241.356 0 362.085 0 436.996 75.003 75.003 74.957 75.003 195.641 75.003 436.995 0 241.357 0 361.984-75.003 437.043-74.957 74.958-195.641 74.958-436.996 74.958-241.357 0-361.984 0-437.043-74.958-74.958-75.008-74.958-195.687-74.958-437.043s0-362.085 74.958-436.995c75.008-75.003 195.687-75.003 437.043-75.003zM718.337 603.136c7.19-7.2 11.231-16.961 11.231-27.136s-4.039-19.935-11.231-27.136l-256-256c-7.2-7.191-16.961-11.231-27.136-11.231s-19.935 4.039-27.136 11.231l-102.4 102.4c-3.774 3.515-6.799 7.754-8.898 12.466s-3.227 9.795-3.319 14.951c-0.090 5.157 0.858 10.278 2.79 15.059s4.806 9.126 8.451 12.772c3.647 3.647 7.991 6.522 12.772 8.451s9.903 2.88 15.059 2.79c5.156-0.091 10.241-1.22 14.951-3.319s8.95-5.125 12.466-8.898l75.264-75.264 228.865 228.865c7.2 7.19 16.961 11.23 27.136 11.23s19.935-4.039 27.136-11.23z" />
<glyph unicode="&#xe92b;" glyph-name="trash" data-tags="trash" d="M51.206 746.649c0 23.551 17.664 42.701 39.475 42.701h136.448c27.085 0.768 50.995 19.354 60.211 46.899l1.536 4.864 5.888 19.047c3.583 11.674 6.707 21.862 11.11 30.975 17.306 35.942 49.357 60.877 86.374 67.277 9.421 1.588 19.303 1.588 30.719 1.588h178.073c11.418 0 21.35 0 30.719-1.588 37.016-6.4 69.119-31.335 86.37-67.277 4.405-9.113 7.526-19.302 11.114-30.975l5.886-19.047 1.536-4.864c9.216-27.545 37.889-46.183 65.022-46.899h131.585c21.86 0 39.525-19.098 39.525-42.701 0-23.553-17.664-42.65-39.475-42.65h-842.694c-21.812 0-39.424 19.098-39.424 42.65zM504.682-64h40.295c138.595 0 207.868 0 252.977 44.187 45.054 44.237 49.661 116.736 58.878 261.684l13.314 208.944c5.020 78.694 7.526 118.015-15.102 142.949-22.635 24.935-60.776 24.935-137.164 24.935h-386.098c-76.339 0-114.535 0-137.164-24.935-22.579-24.934-20.071-64.255-15.105-142.949l13.312-208.896c9.216-145.047 13.824-217.497 58.879-261.733 45.004-44.187 114.38-44.187 252.978-44.187z" />
<glyph unicode="&#xe986;" glyph-name="search" data-tags="search, magnifier, magnifying-glass, inspect, find" d="M992.262 88.604l-242.552 206.294c-25.074 22.566-51.89 32.926-73.552 31.926 57.256 67.068 91.842 154.078 91.842 249.176 0 212.078-171.922 384-384 384-212.076 0-384-171.922-384-384s171.922-384 384-384c95.098 0 182.108 34.586 249.176 91.844-1-21.662 9.36-48.478 31.926-73.552l206.294-242.552c35.322-39.246 93.022-42.554 128.22-7.356s31.892 92.898-7.354 128.22zM384 320c-141.384 0-256 114.616-256 256s114.616 256 256 256 256-114.616 256-256-114.614-256-256-256z" />
<glyph unicode="&#xf021;" glyph-name="loading" data-tags="loading" horiz-adv-x="878" d="M863.433 356.571c0-1.143 0-2.857-0.571-4-48.572-202.288-215.431-343.433-426.291-343.433-111.43 0-219.432 44.001-300.574 121.144l-73.715-73.715c-6.857-6.857-16-10.857-25.714-10.857-20 0-36.571 16.571-36.571 36.571v256.003c0 20 16.571 36.571 36.571 36.571h256.003c20 0 36.571-16.571 36.571-36.571 0-9.714-4-18.857-10.857-25.714l-78.287-78.287c53.715-50.287 125.144-78.858 198.859-78.858 101.715 0 196.002 52.572 249.146 139.431 13.714 22.286 20.571 44.001 30.286 66.858 2.857 8 8.571 13.143 17.143 13.143h109.715c10.286 0 18.286-8.571 18.286-18.286zM877.718 813.719v-256.003c0-20-16.571-36.571-36.571-36.571h-256.003c-20 0-36.571 16.571-36.571 36.571 0 9.714 4 18.857 10.857 25.714l78.858 78.858c-54.287 50.287-125.715 78.287-199.431 78.287-101.715 0-196.002-52.572-249.146-139.431-13.714-22.286-20.571-44.001-30.286-66.858-2.857-8-8.571-13.143-17.143-13.143h-113.715c-10.286 0-18.286 8.571-18.286 18.286v4c49.144 202.859 217.717 343.433 428.576 343.433 112.001 0 221.146-44.572 302.289-121.144l74.287 73.715c6.857 6.857 16 10.857 25.714 10.857 20 0 36.571-16.571 36.571-36.571z" />
<glyph unicode="&#xf060;" glyph-name="arrow-left" data-tags="arrow-left" horiz-adv-x="914" d="M914.288 487.754v-79.504c0-42.236-27.95-79.504-72.671-79.504h-437.269l181.989-182.609c14.907-14.286 23.602-34.783 23.602-55.901s-8.696-41.615-23.602-55.901l-46.584-47.206c-14.286-14.286-34.783-22.982-55.901-22.982s-41.615 8.696-56.522 22.982l-404.35 404.97c-14.286 14.286-22.982 34.783-22.982 55.901s8.696 41.615 22.982 56.522l404.35 403.729c14.907 14.907 35.403 23.602 56.522 23.602s40.994-8.696 55.901-23.602l46.584-45.963c14.907-14.907 23.602-35.403 23.602-56.522s-8.696-41.615-23.602-56.522l-181.989-181.989h437.269c44.721 0 72.671-37.268 72.671-79.504z" />
<glyph unicode="&#xf061;" glyph-name="arrow-right" data-tags="arrow-right" horiz-adv-x="841" d="M841.145 447.999c0-19.429-7.429-38.286-21.143-52l-372.002-372.002c-13.714-13.143-32.571-21.143-52-21.143s-37.714 8-51.429 21.143l-42.857 42.857c-13.714 13.714-21.714 32.571-21.714 52s8 38.286 21.714 52l167.43 167.43h-402.288c-41.143 0-66.857 34.286-66.857 73.143v73.143c0 38.857 25.714 73.143 66.857 73.143h402.288l-167.43 168.001c-13.714 13.143-21.714 32-21.714 51.429s8 38.286 21.714 51.429l42.857 42.857c13.714 13.714 32 21.714 51.429 21.714s38.286-8 52-21.714l372.002-372.002c13.714-13.143 21.143-32 21.143-51.429z" />
<glyph unicode="&#xf062;" glyph-name="trash2" data-tags="trash" horiz-adv-x="1067" d="M965.084 770.529c-76.645 7.617-153.291 13.33-230.412 17.614v0.476l-10.474 61.888c-7.141 43.797-17.614 109.493-129.012 109.493h-124.727c-110.923 0-121.396-62.84-129.013-109.017l-9.997-60.935c-44.273-2.856-88.547-5.713-132.82-9.997l-97.116-9.521c-19.994-1.905-34.276-19.518-32.372-39.037s19.043-33.8 39.037-31.896l97.116 9.521c249.456 24.755 500.814 15.233 753.124-9.997 1.428 0 2.38 0 3.808 0 18.090 0 33.8 13.805 35.704 32.372 1.428 19.518-12.854 37.132-32.848 39.037zM877.491 631.997c-11.425 11.902-27.135 18.566-43.322 18.566h-601.734c-16.186 0-32.372-6.664-43.322-18.566s-17.138-28.087-16.186-44.75l29.515-488.435c5.236-72.36 11.902-162.812 178.045-162.812h305.626c166.144 0 172.813 89.975 178.045 162.812l29.515 487.958c0.952 17.138-5.236 33.324-16.186 45.225zM612.326 174.507h-158.527c-19.518 0-35.704 16.186-35.704 35.704s16.186 35.704 35.704 35.704h158.527c19.518 0 35.704-16.186 35.704-35.704s-16.186-35.704-35.704-35.704zM652.315 364.929h-238.026c-19.518 0-35.704 16.186-35.704 35.704s16.186 35.704 35.704 35.704h238.026c19.518 0 35.704-16.186 35.704-35.704s-16.186-35.704-35.704-35.704z" />
<glyph unicode="&#xf063;" glyph-name="calendar-solid" data-tags="calendar-solid" d="M1017.676 340.542v101.136c0 42.426 0 80.15-0.657 113.777h-1010.040c-0.657-33.628-0.657-71.351-0.657-113.777v-101.136c0-190.691 0-286.061 59.266-345.276 59.215-59.266 154.586-59.266 345.276-59.266h202.272c190.691 0 286.061 0 345.276 59.266 59.266 59.215 59.266 154.586 59.266 345.276zM297.085 922.072c0 10.058-3.996 19.706-11.109 26.818s-16.76 11.109-26.818 11.109c-10.058 0-19.706-3.996-26.818-11.109s-11.109-16.76-11.109-26.818v-79.897c-72.818-5.816-120.553-20.075-155.648-55.22-35.145-35.094-49.404-82.881-55.271-155.648h1003.366c-5.865 72.818-20.126 120.553-55.271 155.648-35.094 35.145-82.881 49.404-155.648 55.271v79.847c0 10.058-3.995 19.706-11.11 26.818-7.11 7.112-16.759 11.109-26.816 11.109s-19.707-3.996-26.816-11.109c-7.115-7.112-11.11-16.76-11.11-26.818v-76.509c-33.628 0.657-71.351 0.657-113.777 0.657h-202.272c-42.426 0-80.15 0-113.777-0.657v76.509z" />
<glyph unicode="&#xf10c;" glyph-name="circle-o" data-tags="circle-o" d="M438.857 758.857c-171.429 0-310.857-139.429-310.857-310.857s139.429-310.857 310.857-310.857 310.857 139.429 310.857 310.857-139.429 310.857-310.857 310.857zM877.714 448c0-242.286-196.571-438.857-438.857-438.857s-438.857 196.571-438.857 438.857 196.571 438.857 438.857 438.857v0c242.286 0 438.857-196.571 438.857-438.857z" />
<glyph unicode="&#xf111;" glyph-name="circle" data-tags="circle" d="M877.714 448c0-242.286-196.571-438.857-438.857-438.857s-438.857 196.571-438.857 438.857 196.571 438.857 438.857 438.857 438.857-196.571 438.857-438.857z" />
<glyph unicode="&#xf192;" glyph-name="dot-circle-o" data-tags="dot-circle-o" d="M585.143 448c0-80.571-65.714-146.286-146.286-146.286s-146.286 65.714-146.286 146.286 65.714 146.286 146.286 146.286 146.286-65.714 146.286-146.286zM438.857 758.857c-171.429 0-310.857-139.429-310.857-310.857s139.429-310.857 310.857-310.857 310.857 139.429 310.857 310.857-139.429 310.857-310.857 310.857zM877.714 448c0-242.286-196.571-438.857-438.857-438.857s-438.857 196.571-438.857 438.857 196.571 438.857 438.857 438.857v0c242.286 0 438.857-196.571 438.857-438.857z" />
</font>
</defs>
</svg>
